DIGITALOG




Начать новую тему Ответить на тему  [ Сообщений: 3 ] 
Автор Сообщение
 Заголовок сообщения: 10cc ‎– 100cc - Greatest Hits Of 10cc
СообщениеДобавлено: 02 май 2019, 22:27 
Не в сети
Модератор
Аватара пользователя

Зарегистрирован: 10 мар 2014, 09:18
Сообщений: 3283
Откуда: С.Пб. Колпино.
Cпасибо сказано: 390
Спасибо получено:
654 раз в 359 сообщениях
Имя: Владимир
10cc ‎– 100cc - Greatest Hits Of 10cc(1975)
Изображение
Изображение
Pioneer PL-30L
AT-15Ea
Sansui AU-517
Zoom H4n
FLAC 24/96


--- вы должны быть зарегистрированным пользователем, чтобы прочитать это содержимое ---


Вернуться к началу
 Профиль Отправить email  
Cпасибо сказано 
За это сообщение пользователю Горыныч "Спасибо" сказали:
Dragon, Willi1973, Крокодил
 Заголовок сообщения: Re: 10cc ‎– 100cc - Greatest Hits Of 10cc
СообщениеДобавлено: 03 май 2019, 08:26 
Не в сети
Администратор
Аватара пользователя

Зарегистрирован: 26 фев 2014, 11:40
Сообщений: 3074
Cпасибо сказано: 408
Спасибо получено:
847 раз в 418 сообщениях
:thank_you: Володь, спасибо за сборничек и отдельное - за то, что он на ЯнДе !!!
Уже слушаю. Как всегда - без загрузки ! :D (архив разбирает сам сервис!)


Вернуться к началу
 Профиль  
Cпасибо сказано 
 Заголовок сообщения: Re: 10cc ‎– 100cc - Greatest Hits Of 10cc
СообщениеДобавлено: 03 май 2019, 10:26 
Не в сети
Аватара пользователя

Зарегистрирован: 23 мар 2014, 08:27
Сообщений: 687
Откуда: Татарстан, Альметьевск
Cпасибо сказано: 118
Спасибо получено:
105 раз в 56 сообщениях
Имя: Сергей
Сделал куй :hi: :D
cue
REM GENRE Rock
REM DATE 1975
PERFORMER "10cc"
TITLE "100cc-Greatest Hits Of 10cc"
FILE "100сс.flac" WAVE
TRACK 01 AUDIO
TITLE "Rubber Bullets"
INDEX 01 00:00:00
TRACK 02 AUDIO
TITLE "Donna"
INDEX 01 04:52:00
TRACK 03 AUDIO
TITLE "The Dean And I"
INDEX 01 07:51:00
TRACK 04 AUDIO
TITLE "The Wall Street Shuffle"
INDEX 01 10:45:00
TRACK 05 AUDIO
TITLE "Silly Love"
INDEX 01 14:25:00
TRACK 06 AUDIO
TITLE "Waterfall"
INDEX 01 18:26:00
TRACK 07 AUDIO
TITLE "4% Of Something..."
INDEX 01 22:10:00
TRACK 08 AUDIO
TITLE "Gismo My Way"
INDEX 01 26:15:00
TRACK 09 AUDIO
TITLE "Hot Sun Rock"
INDEX 01 30:01:00
TRACK 10 AUDIO
TITLE "Bee In My Bonnet"
INDEX 01 33:03:00
TRACK 11 AUDIO
TITLE "18 Carat Man Of Means"
INDEX 01 35:08:00

_________________
Зима недаром злится, Прошла ее пора - Весна в окно стучится И гонит со двора.

Ф. И. Тютчев


Вернуться к началу
 Профиль Отправить email  
Cпасибо сказано 
За это сообщение пользователю Dragon "Спасибо" сказали:
Горыныч, Willi1973
Показать сообщения за:  Поле сортировки  
Начать новую тему Ответить на тему  [ Сообщений: 3 ] 



Кто сейчас на конференции

Сейчас этот форум просматривают: нет зарегистрированных пользователей и гости: 1


Вы не можете начинать темы
Вы не можете отвечать на сообщения
Вы не можете редактировать свои сообщения
Вы не можете удалять свои сообщения
Вы не можете добавлять вложения

Найти:


Powered by phpBB © 2000, 2002, 2005, 2007 phpBB Group

© 2014-2019 DIGITALOG


Вы можете создать форум бесплатно PHPBB3 на Getbb.Ru, Также возможно сделать готовый форум PHPBB2 на Mybb2.ru
Русская поддержка phpBB