DIGITALOG




Начать новую тему Ответить на тему  [ Сообщений: 2 ] 
Автор Сообщение
 Заголовок сообщения: Nat King Cole ‎– At The Sands
СообщениеДобавлено: 07 апр 2019, 13:47 
Не в сети
Модератор
Аватара пользователя

Зарегистрирован: 10 мар 2014, 09:18
Сообщений: 3309
Откуда: С.Пб. Колпино.
Cпасибо сказано: 395
Спасибо получено:
662 раз в 366 сообщениях
Имя: Владимир
Nat King Cole ‎– At The Sands
Изображение
Вложение:
NKC.jpg
NKC.jpg [ 59.63 Кб | Просмотров: 41 ]

Pioneer PL-30L
Philips Gp-500 II
Sansui AU-517
Zoom H4n
FLAC 24/96


--- вы должны быть зарегистрированным пользователем, чтобы прочитать это содержимое ---


Файлы по ссылке доступны 2 недели. В дальнейшем - по запросу.


Вернуться к началу
 Профиль Отправить email  
Cпасибо сказано 
За это сообщение пользователю Горыныч "Спасибо" сказали:
Willi1973, Крокодил
 Заголовок сообщения: Re: Nat King Cole ‎– At The Sands
СообщениеДобавлено: 07 апр 2019, 16:22 
Не в сети
Администратор
Аватара пользователя

Зарегистрирован: 26 фев 2014, 11:40
Сообщений: 3101
Cпасибо сказано: 412
Спасибо получено:
859 раз в 425 сообщениях
:hi:

Код:
REM GENRE Jazz / Vocal
REM DATE 1966
REM COMMENT © Music For Pleasure – MFP 50243
PERFORMER "Nat King Cole"
TITLE "At The Sands"
FILE "Nat King Cole.flac" WAVE
  TRACK 01 AUDIO
    PERFORMER "Nat King Cole"
    TITLE "Ballerina"
    INDEX 01 00:00:00
  TRACK 02 AUDIO
    PERFORMER "Nat King Cole"
    TITLE "Funny (Not Much)"
    INDEX 01 02:31:14
  TRACK 03 AUDIO
    PERFORMER "Nat King Cole"
    TITLE "The Continental"
    INDEX 01 06:01:13
  TRACK 04 AUDIO
    PERFORMER "Nat King Cole"
    TITLE "I Wish You Love"
    INDEX 01 09:41:10
  TRACK 05 AUDIO
    PERFORMER "Nat King Cole"
    TITLE "You Leave Me Breathless"
    INDEX 01 12:40:34
  TRACK 06 AUDIO
    PERFORMER "Nat King Cole"
    TITLE "Thou Swell"
    INDEX 01 15:12:10
  TRACK 07 AUDIO
    PERFORMER "Nat King Cole"
    TITLE "My Kinda Love"
    INDEX 01 17:03:12
  TRACK 08 AUDIO
    PERFORMER "Nat King Cole"
    TITLE "The Surrey With The Fringe On Top"
    INDEX 01 20:21:55
  TRACK 09 AUDIO
    PERFORMER "Nat King Cole"
    TITLE "Where Or When"
    INDEX 01 23:16:27
  TRACK 10 AUDIO
    PERFORMER "Nat King Cole"
    TITLE "Miss Otis Regrets (She's Unable To Lunch Today)"
    INDEX 01 26:49:52
  TRACK 11 AUDIO
    PERFORMER "Nat King Cole"
    TITLE "Joe Turner Blues"
    INDEX 01 31:12:61


Вложения:
Nat King Cole.cue [1.29 Кб]
Скачиваний: 2
Вернуться к началу
 Профиль  
Cпасибо сказано 
За это сообщение пользователю Willi1973 "Спасибо" сказали:
Горыныч, Крокодил
Показать сообщения за:  Поле сортировки  
Начать новую тему Ответить на тему  [ Сообщений: 2 ] 



Кто сейчас на конференции

Сейчас этот форум просматривают: нет зарегистрированных пользователей и гости: 1


Вы не можете начинать темы
Вы не можете отвечать на сообщения
Вы не можете редактировать свои сообщения
Вы не можете удалять свои сообщения
Вы не можете добавлять вложения

Найти:


Powered by phpBB © 2000, 2002, 2005, 2007 phpBB Group

© 2014-2019 DIGITALOG


Вы можете создать форум бесплатно PHPBB3 на Getbb.Ru, Также возможно сделать готовый форум PHPBB2 на Mybb2.ru
Русская поддержка phpBB